DNS SERVER ÄNDERN, um der staatlichen Zensur zu entgehen. Sollten wir von eurem Provider gesperrt werden, nutzt den TOR BROWSER oder ändert euren DNS SERVER.

Filmwünsche können bei uns im Forum abgegeben werden

Wir Speichern Nicht




 
 
 
Top Releases
Mile.22.2018.German.DL.1080p...
Mile.22.2018.German.720p.Blu...
Reign.of.the.Supermen.2019.M...
Upgrade.2018.German.DL.1080p...
Upgrade.2018.German.720p.Blu...
Upgrade.2018.MULTI.COMPLETE....
Durch.die.Wand.The.Dawn.Wall...
Forever.My.Girl.2018.DUAL.CO...
Forever.My.Girl.German.DL.10...
Forever.My.Girl.German.720p....

Cinedubs
Robin.Hood.2018.German.DL.AC...
Robin.Hood.2018.German.DL.AC...
Bumblebee.2018.German.DL.AC3...
Bumblebee.2018.German.DL.AC3...
Der.Nussknacker.und.die.vier...
Dont.Worry.weglaufen.geht.ni...
Dont.Worry.weglaufen.geht.ni...
Gaensehaut.2.Gruseliges.Hall...
Aquaman.TS.LD.German.DL.720p...
Eho.Echo.German.720p.WEBRip....

Neuerscheinungen 2018-19
Enemy.Mine.1985.DUAL.COMPLET...
Der.Weg.nach.El.Dorado.2000....
Der.Weg.nach.El.Dorado.2000....
Gott.ist.nicht.tot.Ein.Licht...
Narziss.und.Psyche.Narcissus...
Trauma.Das.Boese.verlangt.Lo...
Trauma.Das.Boese.verlangt.Lo...
Gott.ist.nicht.tot.Ein.Licht...
The.Domestics.2018.DUAL.COMP...
Trauma.Das.Boese.verlangt.Lo...

XXX
MomPov.E450.Pheobe.XXX.1080p...
DadCrush.19.01.13.Vanna.Bard...
PornMegaLoad.19.01.11.Lexi.S...
LadyVoyeurs.19.01.09.Brook.L...
BBW.Butt.Crushers.XXX.1080p....
GirlsGonePink.19.01.13.Katan...
ReadyOrNotHereICum.19.01.12....
TeensLikeItBig.19.01.09.Gia....
Passion-HD.19.01.09.Emma.Sta...
Shoplyfter.19.01.09.Aryana.A...
Fuck.Me.Furious.3.XXX.1080p....
RoccoSiffredi.19.01.12.Candy...
HentaiPros.Forgotten.Bride.2...
WankItNow.19.01.09.Dolly.P.N...
Private.19.01.10.Mickey.Moor...
Nubiles.19.01.12.Ava.Haze.Se...
FiLFExtra.E45.Riley.Reynolds...
ATKGirlfriends.19.01.09.Kenz...
TeensLikeItBig.19.01.12.Eliz...
KarupsHA.19.01.07.Emily.Star...

3D
Kaluoka.Hina.Das.Zauberriff....
Blade.Runner.2049.3D.2017.Ge...
Walhalla.Rising.3D.2009.DUAL...
Sleepwalker.3D.2011.DUAL.COM...
Bis.an.die.Grenzen.des.Unive...
Best.of.3D.vol.13.-.15.GERMA...
Limbradur.und.die.Magie.der....
Kaluoka.Hina.Das.Zauberriff....
Limbradur.und.die.Magie.der....
Smallfoot.3D.2018.COMPLETE.B...
Smallfoot.Ein.eisigartiges.A...
Skyscraper.3D.2018.German.DL...
Meg.3D.2018.MULTi.COMPLETE.B...
Meg.3D.2018.German.DL.1080p....
Gans.im.Glueck.3D.2018.MULTi...

Old_Stuff
Todfreunde.aka.Bad.Influence...
Animatrix.2003.German.DL.108...
Animatrix.2003.German.DL.720...
Akte.X.S06.German.DTS.DL.108...
The.Beauty.of.Gemina.Minor.S...
ZZ.Top.Live.from.Texas.2008....
Peter.Hase.2018.German.DL.10...
Akte.X.S05.German.DTS.DL.108...
Akte.X.S04.German.DTS.DL.108...
Akte.X.S03.German.DTS.DL.108...
Dunkirk.1958.COMPLETE.BLURAY...
Das.Wunder.von.Manhattan.199...
The.Amazing.Spiderman.2.Rise...
Rise.of.the.Predator.2014.Ge...
Detective.Dee.und.das.Geheim...

Filme
Werner.Volles.Rooaeaeae.1999...
Werner.Volles.Rooaeaeae.1999...
Slender.Man.2018.German.DL.1...
The.Highway.Rat.2017.German....
Carter.S01.GERMAN.DL.720p.HD...
NCIS.Los.Angeles.S10.GERMAN....
NCIS.Los.Angeles.S10.GERMAN....
Rocky.1976.DTS-HD.DL.1080p.W...
Sneakers.1992.German.AC3D.DL...
Sundown.-.Der.Rueckzug.der.V...
Heisse.Hoelle.L.A.1986.Germa...
Mayday.Katastrophenflug.52.2...
Mayday.Katastrophenflug.52.2...
Edge.of.the.Empire.2010.Germ...
Detour.2009.German.1080p.Blu...
Detour.2009.German.720p.BluR...
Enemy.Mine.1985.German.DL.10...
Enemy.Mine.1985.German.DL.72...
Elementary.S06.GERMAN.DUBBED...
Once.Upon.a.Time.S07.German....
Once.Upon.a.Time.S07.German....
FBI.S01.GERMAN.5.1.DUBBED.DL...
Jaeger.der.Hundertstelsekund...
Jaeger.der.Hundertstelsekund...

 
 
Sex.fuer.Anfaenger.2002.German.DL.1080p.BluRay.x264-FRACTAL

Jahr: 2002
Genre: Komödie
Sprache: Deutsch DTS | Englisch DTS
Laufzeit: 1h 45mn
Bitrate: 16.0 Mbps
Format: MKV
Größe: 11.8 GiB
Release:

Beschreibung:

Der zynische Werbetexter Roger hält sich für Gottes Geschenk an die Frauen. Deshalb trifft es ihn um so härter, als ihm eines Tages seine Dauerfreundin, die auch noch seine Chefin ist, den Laufpass erteilt. Und dann steht da auch noch sein kleiner Neffe auf der Matte und möchte von Onkel die Stadt gezeigt bekommen. Als Roger erfährt, dass der Nick noch nie eine Freundin hatte, will er ihm eine Leistungskurslektion in Aufreißen erteilen, Rauchen und Saufen inklusive. Doch der Streifzug durch die Nacht entwickelt sich anders als geplant.



Complete name                            : fractal-sexfueranfaenger-1080p.mkv
Format                                   : Matroska
Format version                           : Version 2
File size                                : 11.8 GiB
Duration                                 : 1h 45mn
Overall bit rate                         : 16.0 Mbps
Writing application                      : mkvmerge v4.1.1 ('Bouncin' Back') built on Jul  3 2010 22:54:08
Writing library                          : libebml v1.0.0 + libmatroska v1.0

Video
ID                                       : 1
Format                                   : AVC
Format/Info                              : Advanced Video Codec
Format profile                           : High@L4.1
Format settings, CABAC                   : Yes
Format settings, ReFrames                : 4 frames
Codec ID                                 : V_MPEG4/ISO/AVC
Duration                                 : 1h 45mn
Bit rate                                 : 12.7 Mbps
Width                                    : 1 920 pixels
Height                                   : 1 080 pixels
Display aspect ratio                     : 16:9
Frame rate mode                          : Constant
Frame rate                               : 23.976 fps
Color space                              : YUV
Chroma subsampling                       : 4:2:0
Bit depth                                : 8 bits
Scan type                                : Progressive
Bits/(Pixel*Frame)                       : 0.255
Stream size                              : 9.35 GiB (79%)
Writing library                          : x264 core 142 r2431 ac76440
Encoding settings                        : cabac=1 / ref=4 / deblock=1:-1:-1 / analyse=0x3:0x133 / me=umh / subme=7 / psy=1 / psy_rd=1.00:0.15 / mixed_ref=1 / me_range=16 / chroma_me=1 / trellis=1 / 8x8dct=1 / cqm=0 / deadzone=21,11 / fast_pskip=0 / chroma_qp_offset=-3 / threads=12 / lookahead_threads=2 / sliced_threads=0 / nr=0 / decimate=1 / interlaced=0 / bluray_compat=0 / constrained_intra=0 / bframes=3 / b_pyramid=2 / b_adapt=1 / b_bias=0 / direct=3 / weightb=1 / open_gop=0 / weightp=2 / keyint=240 / keyint_min=23 / scenecut=40 / intra_refresh=0 / rc_lookahead=40 / rc=crf / mbtree=1 / crf=20.0 / qcomp=0.60 / qpmin=10 / qpmax=69 / qpstep=4 / ip_ratio=1.40 / aq=1:1.00
Language                                 : English
Default                                  : Yes
Forced                                   : No

Audio #1
ID                                       : 2
Format                                   : DTS
Format/Info                              : Digital Theater Systems
Mode                                     : 16
Format settings, Endianness              : Big
Codec ID                                 : A_DTS
Duration                                 : 1h 45mn
Bit rate mode                            : Constant
Bit rate                                 : 1 509 Kbps
Channel(s)                               : 6 channels
Channel positions                        : Front: L C R, Side: L R, LFE
Sampling rate                            : 48.0 KHz
Bit depth                                : 16 bits
Compression mode                         : Lossy
Stream size                              : 1.11 GiB (9%)
Language                                 : German
Default                                  : Yes
Forced                                   : No

Audio #2
ID                                       : 3
Format                                   : DTS
Format/Info                              : Digital Theater Systems
Mode                                     : 16
Format settings, Endianness              : Big
Codec ID                                 : A_DTS
Duration                                 : 1h 45mn
Bit rate mode                            : Constant
Bit rate                                 : 1 509 Kbps
Channel(s)                               : 6 channels
Channel positions                        : Front: L C R, Side: L R, LFE
Sampling rate                            : 48.0 KHz
Bit depth                                : 16 bits
Compression mode                         : Lossy
Stream size                              : 1.11 GiB (9%)
Language                                 : English
Default                                  : Yes
Forced                                   : No


Download:
Share Online Share OnlineShare OnlineShare Online
 

Kommentare