DNS SERVER ÄNDERN, um der staatlichen Zensur zu umgehen. Sollten wir von eurem Provider gesperrt werden, nutzt den TOR BROWSER oder ändert euren DNS SERVER.

Filmwünsche können bei uns im Forum abgegeben werden

Wir Speichern Nicht




 
 
 
Top Releases
Book.Club.Das.Beste.kommt.no...
Book.Club.Das.Beste.kommt.no...
The.Unthinkable.2018.MULTi.C...
Dogman.2018.German.AC3.Dubbe...
Dogman.2018.German.AC3.Dubbe...
The.Unthinkable.Die.unbekann...
Das.Haus.der.geheimnisvollen...
Das.Haus.der.geheimnisvollen...
Leave.No.Trace.2018.German.D...
Leave.No.Trace.2018.German.D...

Cinedubs
Dont.Worry.weglaufen.geht.ni...
Dont.Worry.weglaufen.geht.ni...
Gaensehaut.2.Gruseliges.Hall...
Aquaman.TS.LD.German.DL.720p...
Eho.Echo.German.720p.WEBRip....
Eho.Echo.German.1080p.WEBRip...
Bad.Times.at.the.El.Royale.2...
Bad.Spies.2018.German.DL.AC3...
Aquaman.2018.GERMAN.AC3.MD.7...
Bad.Spies.German.DL.AC3.Dubb...

Neuerscheinungen 2018-19
Grosse.Haie.Kleine.Fische.20...
Keepers.Die.Leuchtturmwaerte...
Keepers.Die.Leuchtturmwaerte...
The.Highway.Rat.2017.German....
Joseph.Koenig.der.Traeume.20...
Joseph.Koenig.der.Traeume.20...
Ab.durch.die.Hecke.2006.Germ...
Ab.durch.die.Hecke.2006.Germ...
Raeuber.Ratte.2017.COMPLETE....
Same.Same.But.Different.2009...

XXX
WildOnCam.18.12.25.Bridgette...
TransAngels.18.10.13.Natassi...
X-Art.18.12.27.Nella.And.Nik...
SugarDaddyPORN.18.12.24.Sofi...
ZeroTolerance.18.12.25.Miche...
WankItNow.18.12.27.Kayla.Lou...
VickyAtHome.18.12.22.All.I.W...
TransAngels.18.11.29.Katrina...
TransAngels.18.10.06.Miran.I...
SlutStepSister.18.12.25.Jenn...
WetAndPuffy.18.12.26.Kate.Fr...
Sounds.Of.Fury.XXX.1080p.WEB...
TransAngels.18.11.01.Jesse.F...
TransAngels.18.09.13.Kayleig...
Yanks.18.12.25.Envy.Fucks.He...
SweetSinner.18.12.25.Emma.Hi...
TransAngels.18.12.20.Natalie...
TransAngels.18.11.10.Miran.U...
TransAngels.18.09.22.Domino....
StraplessDildo.18.12.26.Jia....

3D
Blade.Runner.2049.3D.2017.Ge...
Walhalla.Rising.3D.2009.DUAL...
Sleepwalker.3D.2011.DUAL.COM...
Bis.an.die.Grenzen.des.Unive...
Best.of.3D.vol.13.-.15.GERMA...
Limbradur.und.die.Magie.der....
Kaluoka.Hina.Das.Zauberriff....
Limbradur.und.die.Magie.der....
Smallfoot.3D.2018.COMPLETE.B...
Smallfoot.Ein.eisigartiges.A...
Skyscraper.3D.2018.German.DL...
Meg.3D.2018.MULTi.COMPLETE.B...
Meg.3D.2018.German.DL.1080p....
Gans.im.Glueck.3D.2018.MULTi...
The.Art.of.Flight.3D.2011.Ge...

Old_Stuff
Todfreunde.aka.Bad.Influence...
Animatrix.2003.German.DL.108...
Animatrix.2003.German.DL.720...
Akte.X.S06.German.DTS.DL.108...
The.Beauty.of.Gemina.Minor.S...
ZZ.Top.Live.from.Texas.2008....
Peter.Hase.2018.German.DL.10...
Akte.X.S05.German.DTS.DL.108...
Akte.X.S04.German.DTS.DL.108...
Akte.X.S03.German.DTS.DL.108...
Dunkirk.1958.COMPLETE.BLURAY...
Das.Wunder.von.Manhattan.199...
The.Amazing.Spiderman.2.Rise...
Rise.of.the.Predator.2014.Ge...
Detective.Dee.und.das.Geheim...

Filme
Grosse.Haie.Kleine.Fische.20...
Das.Haus.der.geheimnisvollen...
The.Highway.Rat.2017.German....
Joseph.Koenig.der.Traeume.20...
Der.Stellvertreter.2002.Germ...
Das.Haus.der.geheimnisvollen...
Vikings.S05.German.DD+51.DL....
Vikings.S05.German.DD+51.DL....
Riverdale.US.S03.GERMAN.DL.1...
Riverdale.US.S03.GERMAN.DL.7...
Orange.is.the.New.Black.S01-...
Killjoys.S04.GERMAN.DL.720p....
Killjoys.S04.GERMAN.DL.1080p...
iZombie.S04.German.DD51.Dubb...
iZombie.S04.German.DD51.Dubb...
Carter.S01.GERMAN.DL.1080p.H...
Carter.S01.GERMAN.DL.720p.HD...
9.1.1.S02.GERMAN.DL.1080p.HD...
9.1.1.S02.GERMAN.DL.720p.HDT...
Abenteuer.in.Rio.L.homme.de....
The.Good.Doctor.S02.German.D...
The.Good.Doctor.S02.German.D...
Berlin.Station.S03.GERMAN.DL...
Berlin.Station.S03.GERMAN.72...

 
 
Smallfoot.Ein.eisigartiges.Abenteuer.3D.2018.German.DL.1080p.BluRay.x264-STEREOSCOPiC

Jahr: 2018
Genre: Animation, Komödie
Sprache: Deutsch DTS | Englisch DTS
Laufzeit: 1h 36mn
Bitrate: 8 596 Kbps
Format: MKV
Größe: 5.78 GiB
Release:

Beschreibung:

Der junge Migo (Originalstimme: Channing Tatum / deutsche Stimme: Kostja Ullmann) ist ein aufgeweckter, ehrlicher und treuer Yeti, der sein Herz am rechten Fleck trägt. Er hat immer das geglaubt, was ihm in seinem Dorf beigebracht wurde. Doch als er ein Wesen sieht – einen Menschen – das angeblich nicht existiert, wird sein gesamtes Leben und alles, woran er jemals glaubte, auf den Kopf gestellt. Niemand in der Gemeinschaft nimmt Migo seine Entdeckung ab. Lediglich seine Freundin Meechee (Zendaya / Aylin Tezel), die mit ihrer Neugier ständig Erkundungen macht, glaubt ihm. Mit einer Organisation hat sie bereits Beweise dafür gesammelt, dass Menschen, sogenannte „Smallfoods“, existieren. Dennoch begibt sich Migo alleine auf die Suche nach dem gesichteten Menschen, der Percy heißt und bisher die Existenz von Yetis anzweifelte…



Complete name                            : Smallfoot.Ein.eisigartiges.Abenteuer.3D.2018.German.DL.1080p.BluRay.x264-STEREOSCOPiC.mkv
Format                                   : Matroska
Format version                           : Version 4 / Version 2
File size                                : 5.78 GiB
Duration                                 : 1h 36mn
Overall bit rate                         : 8 596 Kbps
Encoded date                             : UTC 2018-12-22 05:35:33
Writing application                      : mkvmerge v23.0.0 ('The Bride Said No') 64-bit
Writing library                          : libebml v1.3.6 + libmatroska v1.4.9
DURATION                                 : 00:55:35.488000000
NUMBER_OF_FRAMES                         : 6
NUMBER_OF_BYTES                          : 79767
_STATISTICS_WRITING_APP                  : mkvmerge v23.0.0 ('The Bride Said No') 64-bit
_STATISTICS_WRITING_DATE_UTC             : 2018-12-22 05:35:33
_STATISTICS_TAGS                         : BPS DURATION NUMBER_OF_FRAMES NUMBER_OF_BYTES

Video
ID                                       : 1
Format                                   : AVC
Format/Info                              : Advanced Video Codec
Format profile                           : High@L4.1
Format settings, CABAC                   : Yes
Format settings, ReFrames                : 5 frames
Codec ID                                 : V_MPEG4/ISO/AVC
Duration                                 : 1h 36mn
Bit rate                                 : 5 407 Kbps
Width                                    : 1 920 pixels
Height                                   : 800 pixels
Display aspect ratio                     : 2.40:1
Frame rate mode                          : Constant
Frame rate                               : 23.976 fps
Color space                              : YUV
Chroma subsampling                       : 4:2:0
Bit depth                                : 8 bits
Scan type                                : Progressive
Bits/(Pixel*Frame)                       : 0.147
Stream size                              : 3.64 GiB (63%)
Writing library                          : x264 core 157 r2935 545de2f
Encoding settings                        : cabac=1 / ref=5 / deblock=1:-3:-3 / analyse=0x3:0x133 / me=umh / subme=8 / psy=1 / psy_rd=1.00:0.15 / mixed_ref=1 / me_range=16 / chroma_me=1 / trellis=2 / 8x8dct=1 / cqm=0 / deadzone=21,11 / fast_pskip=0 / chroma_qp_offset=-3 / threads=25 / lookahead_threads=4 / sliced_threads=0 / nr=0 / decimate=1 / interlaced=0 / bluray_compat=0 / constrained_intra=0 / bframes=3 / b_pyramid=2 / b_adapt=2 / b_bias=0 / direct=3 / weightb=1 / open_gop=0 / weightp=2 / keyint=240 / keyint_min=24 / scenecut=40 / intra_refresh=0 / rc_lookahead=50 / rc=crf / mbtree=1 / crf=20.0 / qcomp=0.60 / qpmin=0 / qpmax=69 / qpstep=4 / ip_ratio=1.40 / aq=1:1.00
Language                                 : English
Default                                  : Yes
Forced                                   : No
DURATION                                 : 01:36:17.809000000
NUMBER_OF_FRAMES                         : 138529
NUMBER_OF_BYTES                          : 4025974084
_STATISTICS_WRITING_APP                  : mkvmerge v23.0.0 ('The Bride Said No') 64-bit
_STATISTICS_WRITING_DATE_UTC             : 2018-12-22 05:35:33
_STATISTICS_TAGS                         : BPS DURATION NUMBER_OF_FRAMES NUMBER_OF_BYTES

Audio #1
ID                                       : 2
Format                                   : DTS
Format/Info                              : Digital Theater Systems
Mode                                     : 16
Format settings, Endianness              : Big
Codec ID                                 : A_DTS
Duration                                 : 1h 36mn
Bit rate mode                            : Constant
Bit rate                                 : 1 509 Kbps
Channel(s)                               : 6 channels
Channel positions                        : Front: L C R, Side: L R, LFE
Sampling rate                            : 48.0 KHz
Bit depth                                : 24 bits
Compression mode                         : Lossy
Stream size                              : 1.01 GiB (18%)
Language                                 : German
Default                                  : Yes
Forced                                   : No

Audio #2
ID                                       : 3
Format                                   : DTS
Format/Info                              : Digital Theater Systems
Mode                                     : 16
Format settings, Endianness              : Big
Codec ID                                 : A_DTS
Duration                                 : 1h 36mn
Bit rate mode                            : Constant
Bit rate                                 : 1 509 Kbps
Channel(s)                               : 6 channels
Channel positions                        : Front: L C R, Side: L R, LFE
Sampling rate                            : 48.0 KHz
Bit depth                                : 24 bits
Compression mode                         : Lossy
Stream size                              : 1.01 GiB (18%)
Language                                 : English
Default                                  : No
Forced                                   : No

Text
ID                                       : 4
Format                                   : VobSub
Muxing mode                              : zlib
Codec ID                                 : S_VOBSUB
Codec ID/Info                            : The same subtitle format used on DVDs
Language                                 : German
Default                                  : Yes
Forced                                   : Yes


Download:
Share Online Share OnlineShare OnlineShare Online
 

Kommentare